Go Back   Steve's Digicams Forums > Digital Cameras (Point and Shoot) > Sanyo

Thread Tools Search this Thread
Old Aug 7, 2009, 1:16 PM   #11
Senior Member
Join Date: Jan 2006
Posts: 1,092

go to edit->presets

line by line add them in order to the line by line in that pop up window. click on add/update and then save.

then you do the same for next preset. I didnt lay out the spot to where it goes, alot of typing.
Cresho is offline   Reply With Quote
Old Aug 10, 2009, 12:45 PM   #12
Junior Member
Join Date: Jul 2009
Posts: 7

first worked however when it plays (tried mplayer and vplayer) it is kinda jerky with some video artifacts ..

the second one failed with this weird message:

ems stream 0 codec frame rate differs from container frame rate: 119.88 (120000/1001) -> 59.94 (60000/1001)
Input #0, mov,mp4,m4a,3gp,3g2,mj2, from '/vmware/nick-HD/SANY0008.MP4':
Duration: 00:00:59.47, start: 0.000000, bitrate: 24074 kb/s
Stream #0.0(eng): Video: h264, yuv420p, 1920x1080 [PAR 1:1 DAR 16:9], 59.94 tbr, 60k tbn, 119.88 tbc
Stream #0.1(eng): Audio: aac, 48000 Hz, 2 channels, s16
Unknown encoder 'xvid'
Press Enter to Continue
I tried libxvid instead of xvid .. same thing..

my ffmpeg params are:
user@user:~$ ffmpeg --help
FFmpeg version SVN-r19557, Copyright (c) 2000-2009 Fabrice Bellard, et al.
configuration: --enable-gpl --enable-nonfree --enable-pthreads --enable-libfaac --enable-libfaad --enable-libmp3lame --enable-libtheora --enable-libx264 --enable-libxvid --enable-x11grab
libavutil 50. 3. 0 / 50. 3. 0
libavcodec 52.32. 0 / 52.32. 0
libavformat 52.37. 0 / 52.37. 0
libavdevice 52. 2. 0 / 52. 2. 0
libswscale 0. 7. 1 / 0. 7. 1
built on Jul 31 2009 17:48:08, gcc: 4.3.3
ffmpeg: missing argument for option '--help'
floring is offline   Reply With Quote
Old Aug 12, 2009, 4:23 AM   #13
Senior Member
Join Date: Jan 2006
Posts: 1,092

hey I can't recall if you are using linux or not? are you? you are using ffmpeg Dumped down version. nothing is enabled. send me a personal message with your operating spec and i will get you started on the right direction in the private message. I need to help you enable god mode in ffmpeg.
Cresho is offline   Reply With Quote

Thread Tools Search this Thread
Search this Thread:

Advanced Search

Posting Rules
You may not post new threads
You may not post replies
You may not post attachments
You may not edit your posts

BB code is On
Smilies are On
[IMG] code is On
HTML code is Off
Trackbacks are Off
Pingbacks are Off
Refbacks are Off

All times are GMT -5. The time now is 3:54 AM.