Go Back   Steve's Digicams Forums > Digital Cameras (Point and Shoot) > Hybrid Still/Movie/MP3 Digicams

Reply
 
Thread Tools Search this Thread
Old Nov 24, 2011, 3:17 PM   #1
Junior Member
 
Join Date: Nov 2011
Posts: 5
Default RAW sample footage from Kodak Zx5?

Hi, I am looking for some raw (as in unedited, unhosted) MP4 footage from a Zx-5, so I can ensure it's compatible with my Android netbook's video editing app before I purchase...

Does anyone have any online (on megaupload or something)?

Anything else I should be warned about before purchase?
(the Kodak website implies there may be pre-2011 ZX'5s that don't have all the features, as there are lots of [1] [2] [3] on the website...)

Thanks.
clashfan is offline   Reply With Quote
Sponsored Links
Old Nov 24, 2011, 4:43 PM   #2
Administrator
 
Join Date: Jun 2003
Location: Savannah, GA (USA)
Posts: 22,378
Default

See our review samples here:

http://www.steves-digicams.com/camer...hotos-146.html

With Firefox, I can just right click on a video and select "Save Link As" and download one.
JimC is offline   Reply With Quote
Old Nov 25, 2011, 3:03 AM   #3
Junior Member
 
Join Date: Nov 2011
Posts: 5
Default

Thanks, that has helped immensely, I have determined the MP4 format that the ZX5 produces is NOT compatible with Android honeycomb 3.2 (on my Asus Transformer at least).

I'm off to find some raw footage from the Samsung W200 now...

(for reference the video file produced by the ZX5 is shown below)

General
Complete name : C:\Users\Mark\Desktop\101_0002.MP4
Format : MPEG-4
Format profile : JVT
Codec ID : avc1
File size : 23.2 MiB
Duration : 16s 16ms
Overall bit rate mode : Variable
Overall bit rate : 12.2 Mbps
Movie name/More : KODAK PLAYSPORT Video Camera, Zx5
Encoded date : UTC 2011-06-17 16:26:02
Tagged date : UTC 2011-06-17 16:26:02
Origin : Digital Camera
AMBA : 

Video
ID : 1
Format : AVC
Format/Info : Advanced Video Codec
Format profile : [email protected]
Format settings, CABAC : Yes
Format settings, ReFrames : 4 frames
Codec ID : avc1
Codec ID/Info : Advanced Video Coding
Duration : 16s 16ms
Bit rate mode : Variable
Bit rate : 11.8 Mbps
Maximum bit rate : 49.9 Mbps
Width : 1 920 pixels
Height : 1 080 pixels
Display aspect ratio : 16:9
Frame rate mode : Constant
Frame rate : 29.970 fps
Color space : YUV
Chroma subsampling : 4:2:0
Bit depth : 8 bits
Scan type : Progressive
Bits/(Pixel*Frame) : 0.189
Stream size : 22.4 MiB (97%)
Title : Ambarella AVC / Ambarella AVC
Language : English
Encoded date : UTC 2011-06-17 16:26:02
Tagged date : UTC 2011-06-17 16:26:02

Audio
ID : 2
Format : AAC
Format/Info : Advanced Audio Codec
Format profile : LC
Codec ID : 40
Duration : 15s 979ms
Bit rate mode : Variable
Bit rate : 64.0 Kbps
Channel(s) : 1 channel
Channel positions : Front: C
Sampling rate : 48.0 KHz
Compression mode : Lossy
Stream size : 125 KiB (1%)
Title : Ambarella AAC / Ambarella AAC
Language : English
Encoded date : UTC 2011-06-17 16:26:02
Tagged date : UTC 2011-06-17 16:26:02
clashfan is offline   Reply With Quote
Old Nov 25, 2011, 7:31 AM   #4
Junior Member
 
Join Date: Nov 2011
Posts: 5
Default

Anyone got any 720p 60FPS footage from the Kodak zx5?

The 1080p doesn't work on my Android tablet, but I have heard the 720p 60FPS mode might. (I want to use it for sports, so I would likely use it in 720p/60FPS mode anway).

Thanks in advance...
clashfan is offline   Reply With Quote
 
Reply


Thread Tools Search this Thread
Search this Thread:

Advanced Search

Posting Rules
You may not post new threads
You may not post replies
You may not post attachments
You may not edit your posts

BB code is On
Smilies are On
[IMG] code is On
HTML code is Off
Trackbacks are Off
Pingbacks are Off
Refbacks are Off



All times are GMT -5. The time now is 1:53 AM.